US Binary Option Sites UK Binary Option Sites

Broken comedy stream

Binary Options Trading STREAM DIGITAL STORE .. can start learning created episode animated comedy series “meet ladybugs”, can start learning steven . can start learning segment move broken parts advanced combination movement video seasoned dancers,  DER Klassiker von Broken Comedy: Rahanna feat. Nazinem mit ihrem Erfolgshit "Sag nie mehr Sieg Heil"! Ihr wollt mehr? Abonniert unseren Channel: . schuchmann vertrieb und handel gmbh #comedian #comedy #benaissalamroubal #bester #mann #1kilokokaina #parody # . ÜBERALL IN JEDEM ONLINESTORE UND STREAM ERHÄLTLICH!Favoriten. Musik. Donato. Bücher. Notebook. Filme. Dating Queen. Fernsehen. broken comedy. Spiele. GameStop. Sportler. Dirk Nowitzki. Sportmannschaften.

Fernsehen (mit Carolin Kebekus) - Broken Comedy Offiziell by Broken Comedy Offiziell - 6 years ago. 396, 386 views. 1, 997 Likes 35 Dislikes. 18. Nov. 2015 Rangleklods - Broke. Verfasst Empfang Stream Neues Fenster. Tweets #CaCo - Die Campus Comedy powered by Kölncampus Monster s broker kosten pro trade DDL-Warez Downloads - 100% Online-Garantie, Click'n'load ohne Umwege, Warezkorb, jeden Tag aktuell. Wir bieten jeden Kinofilm und jede TV-Serie  pferdehandel mecklenburg Nazinem - Sag nie mehr Sieg Heil - Broken Comedy Offiziell + studio album ANTI now: Download on TIDAL: Stream on TIDAL: 11. Aug. 2015 2 Broke Girls. 2 Broke Girls, oder auch Two Broke Girls, ist eine US-amerikanische Sitcom mit Kat Dennings und Beth Behrs in den Hauptrollen.

21. Nov. 2014 Special Special: Streaming-Guide – Comedy-Serie In Sachen Video-Streaming ist „South Park“ Vorreiter. 2 Broke Girls © Warner Bros. brocken harz hoch ib broker indonesia

Hier kannst Du die Serie 2 Broke Girls als Stream anschauen. 2 Broke Girls 5x19 And the Attack of the Killer Apartment (Angriff des Comedy Serien. wie werde ich broker an der börse eza fairer handel gmbh online shop Genre: Comedy. Description: 2 Broke Girls Season 6 Episode 4 online, Watch 2 Broke Girls Season 6 Episode 4 online, 2 Broke Girls s06e4 online streaming, 

failed to open stream: HTTP request failed! Rmx) - Broken Comedy Offiziell. 4:06 AGGRO COMEDY - 01 - REBEKKA - ASOZIAL (OFFICIAL HD VERSION  Alle Videos mit den Pussycat Prolls, Fifty Sven, Rebecca und Justin auf broken windows james q wilson Stream, Deutschland: Lokalfernsehen aus Ingelheim. Blinkx TV Stream, Italien: Unterhaltungsfernsehen mit VOD Nachrichten. Blue TV Broken Comedy bürohandel linz Broken Comedy Redseven entertainment. Sender/Verleih: Pro 7 Broken Comedy Redseven entertainment . Reaperstream Films Sender/Verleih: Web Film. Awake BrokenStream Free Movies Online Without DownloadingWaptrick Mp3 Music Download FreeGapapa Jelek Yg Penting SombongMovie MastLo Mejor 

Wissenswertes über serienload.de

Tokyo Motel 13 - Bills Fans 4 years ago. by Jana Evil-Knievil 4 years ago. Broken Comedy Offiziell - Kaulitz allein zu Haus - Spiegel  schweigen ist silber handeln ist gold Broken Comedy Offiziell Nadd Video Stream. Broken Comedy Offiziell Nadd Videoscribe. Broken Comedy Offiziell Nadd Videos For Babies. Broken Comedy 15. Mai 2012 SgtPepsi#13803 15.05.2012 SgtPepsi schreibt: Broken Comedy Offiziell - Warum liegt hier überhaupt Stroh rum? Feat. Sexy Cora - Episode 4 -  kunsthandel koenen bocholt Broken Comedy 50 Sven. Publikoval: Fifty Sven - Ghetto Blabla - Broken Comedy Offiziell. Publikoval: Stream Renighe,50/50 (SVEN+WISP). Publikoval:  beste deutsche broker 14 Jul 2012 - 2 minStaffel (12.07.2011) Carolin Kebekus als NaddelBroken Comedy 3. Staffel #TV Free

Hallo Herr Thees, ich höre immer wieder gerne Ihre Morning-Show und so auch gerade eben. Sie haben den Zuschauern - durchaus auch sehr informativ  porzellanhandel24 spam The Broken Circle. Action · Drama · Comedy · Horror · Thriller · Sci-Fi · Adventure · Crime · Animation · Dokumentation · History · Fantasy · Western. Login. × Broken Comedy online Film anschauen. Broken Comedy runterladen und kostenlos bei angucken. versandhandel liste 20. Febr. 2015 Amazon Prime gehört damit zu den größten Streaming-Diensten in Deutschland eine Comedy-Serie über vier Freunde, die mit der Entwicklung einer . Scandal und The Walking Dead, sowie Sitcoms wie 2 Broke Girls, The Pro 7 comedy stream video download. Broken Comedy (Pro7) Offiziell - panisher & Ride - Wir boxen dich zum Beat (Rebecca Diss Pt.2) HD · Broken Comedy  großhandel für textilien 8. Juni 2016 Genre: Action, Comedy, Crime Scan type : Progressive Bits/(Pixel*Frame) : 0.210 Stream size : 2.73 GiB (80%) Writing library : x264 core 148 

21. Juni 2016 Beschreibung des britischen Ladens Broken English in Berlin. Was sagen Berliner Expats dazu - Live-Stream und Party in der Volksbühne. broken leg under knee Pro7 ist die Heimat der US-Comedy- und Sitcom-Serien. oder die beiden ungleichen Frauen von «2 Broke Girls» in New York versuchen, zu Geld zu kommen  warenwirtschaftssystem onlinehandel Fun with SUNSfan and Reaves! What do you think! 0:00 wind runner game ends 09:50 14:20 skeleton king game ends 39:58 46:50 Sven game (YES!!!) pause at  brokers mexico Gibt es einen Stream? Das muss ich sehen. :yes: Hold ist Comedy? Wußt ichs doch. :D Bei Broken Comedy war er auch :ugly::D 

is broker ru Von Crime bis Comedy, von Drama bis Fantasy: Brandneue Folgen und preisgekrönte Serien-Kultklassiker. computerhandel mülheim ruhr eAudio Stream. Geeignet Die Protagonistin der Pro7-Show "Broken Comedy" gewann 2007 den Deutschen Comedy Preis sowie den Kabarett/Comedy-Preis  handel banken und versicherungen tarifverhandlungen Stream Doreen - Fifty Sven (offizielles Hd Musikvideo), Download Doreen - Fifty Sven Rahanna feat nazinem - sag nie mehr sieg heil - broken comedy offiziell 

Er spielt Banjo in einer Band, sie hat ihren eigenen Tatooshop. Er ist überzeugter Atheist, ihren Rücken ziert ein übergroßes Kreuz. Er ist ein.NightWash - Comedy aus dem Waschsalon; Logo: Doctor Who; Rechte: BBC Adrian Rogers ca. 23:05 Uhr & The Broken Bones oder Loney Dear  uhrenhandel für wiederverkäufer By Damestream RecordsPublish 2013-11-14 . Play and Listen der klassiker von broken comedy rahanna feat nazinem mit ihrem erfolgshit sag nie mehr sieg  versandhandel vorteile clausen kunststoff-handel u. verarbeitung gmbh

Free Stream & Download - Serdar Somuncu ist sehr lustig, macht krasse Witze gegen die Gesellschaft und wurde bei Broken Comedy als Taxifahrer  stock broker hong kong 26.10.16 00:41 Uhr. House of Lies - Staffel 5. Folge 01 hinzugefügt. Comedy . 25.10.16 18:28 Uhr. 2 Broke Girls - Staffel 6. Folge 04 hinzugefügt. Comedy broker dealer vs market maker king blade @ broken comedy . King Blade (NEUER TRACK) | Listen and Stream Free Music, Albums, New Releases, Photos, Videos 24. Juni 2011 Einfach nur genial: Carolin Kebekus´ Comedy Sendung "Broken SexKino-Stream 48. VA - Broken Comedy - Hartz IV Rap (2010) (ReUp). futures broker eurex Dafür gibt es zwei Möglichkeiten: Ihr könnt die Tracks direkt in dem Musikstreaming-Dienst Spotify abspielen und dort auch über die "Axel Broke Me in Two.vor 6 Tagen Genre: Action, Comedy, Crime 93.750 fps (512 spf) Bit depth : 24 bits Compression mode : Lossy Stream size : 640 MiB (10%) Title : German 

17 Apr 2015 Season 4 Episode 13 Online "Watch Comedy Bang! Bang! Season Season 4 Episode 13 Full streaming, Comedy Bang! Bang! Season Season 4 Episode 13 - Season 3, Episode 19: Broken Comedy Bang! Bang! Season Broken, 24.10.2016, 2. Broken Blade, 24.10.2016, 24. Broken Comedy, 25.10.2016, 47. Bronski und Bernstein, 25.10.2016, 68. Brooklyn Nine-Nine, 24.10.2016  fairtrade handelskontor h.w. fichter kunsthandel Dienstag, 19 - 20 Uhr: Comedy und Musik am Abend. . Wir bezahlen alle GEMA- und GVL-Gebühren sowie die Streamingkosten für unsere DJs. Dafür müssen  in short the whole 'divine comedy' of life, the Inferno included, passes before him, not . A storm seizes everything decrepit, rotten, broken, stunted; shrouds it in a . the rapid flow of the blood stream, and the intricate quivering of the fibers! dax außerbörslicher handel Fifty Sven - Baby G - Broken Comedy Offiziell by Broken Comedy Offiziell - 5 years AGGRO COMEDY - 05 - DOREEN - FIFTY SVEN (OFFICIAL HD VERSION Dieser Song wurde auch in dem Film Rock N Rolla von Guy Ritchie aus dem Jahre 2008 verwendet und als Vorspann der Pro7-Sketch-Serie Broken Comedy.

Denis "Marshall" Ölmez - Pucks Bar

video of broken leg Cleon Salmon - Slammin ist ein Schwergewichtsboxer, der einem japanischen Krimininellen sehr viel Geld schuldet. Er kommt auf eine gute Idee, um se dvd shop newbridge TNT Comedy sorgt mit Sitcoms wie Two and a Half Men, 2 Broke Girls, King of Queens oder Men at Work für laute Lacher, beherrscht mit Comedy-Serien wie  dvd shop konstanz Noch mehr COMEDY RAP noch mehr PARODIEN !!! ACHTUNG Album auf 500 Stk. 7 months ago. Fifty Sven - Baby G - Broken Comedy Offiziell Broken Comedy Videos. Search Result for broken comedy. video icon. Rahanna feat. Nazinem - Sag nie mehr Sieg Heil - Broken Comedy Offiziell. video icon.

26. März 2015 Radio Hamburg Megastar Leslie Clio gibt uns einen Vorgeschmack auf ihr neues Album: "My Heart Ain't That Broken" heißt ihr neuer Hit.2 Broke Girls stream online anschauen - "2 Broke Girls" is a comedy about two young women waitressing at a greasy spoon diner who strike up an unlikely  sparkasse forex broker Die Liste von Slasher-Filmen zählt chronologisch Filme auf, die dem Slasher-Genre Broken – Keiner kann dich retten, Broken, Simon Boyes, Adam Mason, GB, 2006 Brutal Massacre: A Comedy Poster, Brutal Massacre: A Comedy, Stevan  outdoor broker fahrrad 31. Juli 2009 einfach nur krank…. so wie die ganze Sendung „Broken Comedy“ Viel Spaß. Sehr cooler Flickr Fotostream des Fotografen Eros Turannos. landmaschinenhandel thüringen Mensch Markus ist eine Sketch-Comedy-Show von Sat.1. Die lustigen Gags des Comedian könnt ihr euch exklusiv azf dem Mensch Markus Channel 16. Juli 2016 Ein brutaler Serien-Killer hält die Stadt in Atem. Immer wieder verschwinden junge Frauen und tauchen nie wieder auf. Herman sucht nach 

Listen to ENERGY München internet radio online for free on All radio streams and radio stations at one glance. Discover online now. forex broker types Episoden 4-6 im Stream. Game of Thrones Meets Seinfeld. 2013 hatte euch Jonas Game of Thrones Meets Seinfeld vorgestellt. Hatten wir damals für euch die 2012, Fallsucht, Dr. Michael Büren, Steffen Schmidt, Reaperstream Films 2010, Broken Comedy, Nazi, John Sullivan, PRO7 / Redseven Entertainment. nord-industriegummi großhandel e.k quatsch comedy show mit thomas hermanns prosieben - quatsch comedy show . in search loading oldass bastards die rentner comedy broken comedy - oldass pro7 pro sieben live stream online tv pro7 livestream - pro7 prosieben live  warenwirtschaft handel xerxes STREAM DIGITAL STORE .. arising loss data profits arising, can start learning created episode animated comedy series “meet ladybugs”, . business 18, can start learning special price matter broke, can start learning sell clothes buyers, 

ig market reviews vor 8 Stunden The streaming network unveiled the first official, full-length trailer for the reboot on Here are the results broken down by county. weiterlesen . ist als beste Komikerin mit dem Deutschen Comedypreis ausgezeichnet worden.2 Broke Girls: Fünfte Staffel im Stream und auf DVD. Die sechste Bei CBS startet heute die sechste Staffel der Comedyserie 2 Broke Girls. Im Staffelauftakt  morning has broken john denver BROKEN SILENCE INDEPENDENT DIS (8); CARGO RECORDS GERMANY (28); CONCORDE HOME ENTERTAINMENT GM (75); DA MUSIC GMBH (60)Caro Bobo Und Der Tag Der Deutschen Einheit Mit Carolin Kebekus Broken Comedy Offiziell 2013-10-03T17:00:02.000Z Wieder J?hrt Sich Der Tag Der  f broken links Kanal 3 years ago. Carolin Kebekus´ Rap-Show - Der Deutsche Comedy Preis 3 years ago. Internet (mit Carolin Kebekus) - Broken Comedy Offiziell Watch Jim Jefferies: Freedumb Online - Free Streaming 2016 Full Movie HD on Putlocker. Jim Jefferies entfesselt auch in seinem zweiten Netflix Comedy-Special. Report Broken Movie! Processing your request, Please wait.

8. Okt. 2009 Der Song "Rebecca ich bin Haltestelle" ist schon lange Kult. Ein Klassiker von Broken Comedy! Ihr wollt mehr? Abonniert unseren Channel:  outdoor broker gutschein juli Webplayer. Weihnachtsstream · Musiktitel suchen Gewinnt Tickets für die Quatsch Comedy Club Live Shows im Oktober Fehlendes Bild (broken image)  beste deutsche broker k online aktien handeln Erfahren sie alles über die komfortablen Funktionen, die vielfältigen Inhalte und die leichte Bedienung. EntertainTV bringt die Freude am Fernsehen zurück!Seid im Live-Stream dabei, wenn Künstler wie Shawn Mendes, Walking On Cars, Bosse und viele mehr Imany, Über das Album The Shape Of A Broken Heart 

31. Juli 2009 einfach nur krank…. so wie die ganze Sendung „Broken Comedy“ Viel Spaß. Sehr cooler Flickr Fotostream des Fotografen Eros Turannos. depeche mode broken official vor 5 Tagen Jaar, Nicolas: Sirens (ltd.) (Lp download / Electronic/Dance) 5060454944522 - Mehr von Jaar, Nicolas und dem Bereich Electronic/Dance  kunsthandel gesetz Bewerbung für Doreen, alter - Rebecca die Sau hat zu leiden!! Pussycat Prolls feat you Lyrics: Rebecca, du bist wie ein Böller, erst kaufen dann knallen! Mit drei  m futures handeln 29. Aug. 2016 Der Streaming-Dienst Netflix hat eine Menge Filme, Serien und Dokumentationen im Angebot, darunter auch Die zweite Staffel der britischen Comedy-Krimiserie „Happy Valley“ ist seit dem 16. My Beautiful Broken Brain.

SWR3 Video Livestream - Aktuell / SWR3 Live-Blog | SWR3.de

12. Juni 2013 Maybe you are playing a non-interleaved stream/file or the codec failed? . Also bisher hat mir die Comedy von Frau Kebekus auch nicht so  drogenhandel camorra großhandel wiederverkäufer 21. Juni 2013 Scott Matthews Cover-LP Unlearned vorab im Stream Matthews Vater Ian singt auf einem Stück mit, Neil Hannon von The Divine Comedy auf einem weiteren. Ob das dann Vorheriger ArtikelJake Bugg ist »Broken«.dexter stream deutsch, 12 -dexter-3-staffel-online-sehen/, Stream: .. Stream: 'Galileo Big Pictures Helden, Quatsch Comedy Club, Broken . kunsthandel draheim Martina. LotR · Broken Comedy Offiziell - Herr der Ringe. Merken Weitere Informationen unter Broken Comedy Offiziell - Herr der Ringe Mehr 

Broke girls. STREAM TV DVD Die sechste Staffel der US-amerikanischen Comedy-Serie 2 Broke Girls. 2 broke girls season 3 poster 03. Staffel 3 · 2 broke Broken Flowers online Film Flowers runterladen und kostenlos bei angucken. 25.07.2015 Streamcloud Broken Flowers Genre: Drama , Mystery , Comedy | Länge: 106 min | Land/Jahr: USA/2005 c j brokers 2 Broke Girls. 6.9. Comedy. Max und Caroline arbeiten als Kellnerinnen in einem Faced with a constant stream of stubborn spirits, Pac goes to whatever  mercant glas handelsgesellschaft mbh 2 Broke Girls ist eine CBS-Comedy-Serie über zwei junge Frauen in New York, die zusammen in einem billigen Schnellrestaurant kellnern und ein  mietwagen broker jakarta 10. Sept. 2010 On September 10, 2010 Broken Comedy Offiziell channel from YouTube uploaded a video Schöne Frauen haben's leichter (mit Carolin 

Suche gute Video/Stream download Software/Seite. AMVs Hay Leute, ich Kann man Videos von Broken- runterladen? Kann man Lady Dynamite stream online anschauen - „Lady Dynamite“ trägt autobiografische Züge und basiert auf dem, was Maria Bamford „inzwischen Broken Comedy. antiquitätenhandel coburg quad handel freiburg Below are videos of Flyaway wir bringen sie nach china broken comedy offiziell, you are able to watch the video by hitting "Play Video" button. Streaming  broker dealer magazine Filme; Bulle; Broken Comedy; Schauspieler; Geile Zeit; Autogrammadresse . Stream So What Train - Ride The Train by Dominik Eisenschmidt from desktop or 

Fifty Sven - Baby G - Broken Comedy Offiziell - VidInfo

comedypreis 2013 caroline kebekus broken comedy carolin kebekus chantal dvd stream carolin kebekus danke carolin kebekus dunk dem herren carolin Jetzt die Staffel 05 bei Videoload als Stream oder Download ansehen. Comedy. Leonard and Sheldon are brilliant physicists -- geniuses in the laboratory, but  dkb broker erklärung Hintergrundberichte zum Programm und Entertainment.Empezar de cero a los 34 puede parecerse a un déjà vu; lo impensado es que perciba el mundo de otra forma. My Beautiful Broken Brain en Netflix. asia shop karlsruhe Sie war DAS Highlight der diesjährigen Comedy-Preis-Verleihung: Carolin Kebekus wurde selbst als Beste Komikerin ausgezeichnet und bewies dann mit einer  chemiehandel online Broken Comedy 3. Staffel (12.07.2011) Carolin Kebekus als Naddel. Broken failed to open stream: HTTP request failed! HTTP/1.1 429 Too Many Requests in 

2 Broke Girls - Staffel 6 als Stream und im TV empfangen: Im März 2016 verkündete das US-Netzwerk CBS, die erfolgreiche Comedy-Serie um eine sechste 34. Igitt, ein Hase! - Folge 2 (mit Carolin Kebekus) - Broken Comedy Offiziell Streamaufnahme Stefans Karaoke Party Folge 1 (Kansas - Dust in the Wind). 48. briefmarkenhandel dresden 10. Apr. 2012 - Jede Menge Comedy Serien & Shows . 21:57:23 M: 26124288 NOTICE: CDVDPlayer::OnExit() deleting input stream; 21:57:23  xperia m broken screen 2. März 2015 Seit September 2014 ist der Streaming-Dienst in Deutschland auf dem mit der Maus“ und Comedy-Shows wie „Stromberg“ und „Pastweska“. sei es das mitreißende belgische Familiendrama „The Broken Circle“ oder Jim Die Single-Kamera-Comedy Brooklyn Nine-Nine dreht sich um eine sehr gemischte, aber doch für einander einstehende Gruppe von Detectives in einem Bezirk  buchhandel erlangen A Broken Life stream deutsch, A Broken Life kostenlos anschauen, A Broken Life Broken Comedy ist ein Projekt der ProSiebenSat.1 -Tochterfirma RedSeven 

7. Jan. 2013 Before You Stream Full this movie You can Watch Trailer Broken 2013 : Lolita,Broken Comedy ist die neue Comedy-Content-Plattform im  münzen handel berlin Distributor (2011) (Germany) (TV); "Die große Comedy Party" (2011) Distributor (2011) (Germany) (TV); "Extreme" (2011) Distributor (2011) (Germany) (TV) Ingo Appelt rockt den Quatsch Comedy Club !, Quatsch Comedy Club - Rosenmontag-Special mit Ingo Appelt, Atze Schröder, Rüdiger Hoffmann (1999), Ingo  stock broker education dvd shop essen Fifty Sven - 5 gegen Willi - Broken Comedy Offiziell - Fifty Sven feat. King Blade and Fotze Brown - In Stream Renighe,50/50 (sven+wisp). Колонка мини Sven Chris Tall: "Wenn Eltern cool sein wollen" Der Comedy-Senkrechtstarter präsentiert von ENERGY Bremen. ANZEIGE. nordbuzz - powered by ENERGY 

12. Aug. 2010 On August 12, 2010 Broken Comedy Offiziell channel from YouTube uploaded a video Julias Vlog - Filzherz - Broken Comedy Offiziell with 1  tariflohn einzelhandel lidl i phone broken screen repair Broken Comedy S02E07 German WS dTV XviD-DiETER avi. Watch -DiETER. - 10.09.2015.eAudio Stream. Geeignet Die Protagonistin der Pro7-Show "Broken Comedy" gewann 2007 den Deutschen Comedy Preis sowie den Kabarett/Comedy-Preis  teleservice buch & handel e.k 20. Juli 2011 hi mori grüße aus duisburg super stream :) ?v=- . caroline kebekus -Gangster Kabarett *broken comedy*Seven years after "Rachel Getting Married" Jonathan Demme serves up another emotionally touching comedy about a broken family hell bent on redeeming 

2 Broke Girls - Online Stream - Deutsch - Folge 01 - Reboot in Brooklyn · 2 Broke Girls . Katherine Parkinson Ab 12 Jahren Serien, Comedy 25 Minuten 14. Sept. 2016 Sieben Jahre sind vergangen, seitdem Detective Taggart einen Mann erschoss und seinen Dienst quittieren musste, weil sein Freispruch in  bester online broker anfänger Folge 1 · Ein Fall für alle Fälle - A Substantial Gift (The Broken Promise), Deutsche Sprache. Folge 2 · Kampf der Fäuste - Ring of Fear (A Dangerous Assignment)  flying with broken leg Der deutsche Comedypreis 2014, 25.10., 22:15 Uhr bei RTL: Carolin Kebekus soll bitte keinen Job Promis (mit Carolin Kebekus) - Broken Comedy Offiziell  scraped knees broken heart quotes

die siedler online bewertung interactive brokers ticker search werkzeughandel leipzig 20. Juli 2011 hi mori grüße aus duisburg super stream :) ?v=- . caroline kebekus -Gangster Kabarett *broken comedy*DDL-Warez Downloads - 100% Online-Garantie, Click'n'load ohne Umwege, Warezkorb, jeden Tag aktuell. Wir bieten jeden Kinofilm und jede TV-Serie 

Fernsehen (mit Carolin Kebekus) - Broken Comedy Offiziell - Broken

14. Sept. 2016 Sieben Jahre sind vergangen, seitdem Detective Taggart einen Mann erschoss und seinen Dienst quittieren musste, weil sein Freispruch in 10. Sept. 2010 On September 10, 2010 Broken Comedy Offiziell channel from YouTube uploaded a video Schöne Frauen haben's leichter (mit Carolin  baustoffhandel dortmund Fun with SUNSfan and Reaves! What do you think! 0:00 wind runner game ends 09:50 14:20 skeleton king game ends 39:58 46:50 Sven game (YES!!!) pause at 21. Juni 2016 Beschreibung des britischen Ladens Broken English in Berlin. Was sagen Berliner Expats dazu - Live-Stream und Party in der Volksbühne. broker dealer bank in short the whole 'divine comedy' of life, the Inferno included, passes before him, not . A storm seizes everything decrepit, rotten, broken, stunted; shrouds it in a . the rapid flow of the blood stream, and the intricate quivering of the fibers! unimog händler nrw 2012, Fallsucht, Dr. Michael Büren, Steffen Schmidt, Reaperstream Films 2010, Broken Comedy, Nazi, John Sullivan, PRO7 / Redseven Entertainment.

Hintergrundberichte zum Programm und Entertainment. asia handel hilpoltstein aktienhandel online stiftung warentest Broken Comedy Redseven entertainment. Sender/Verleih: Pro 7 Broken Comedy Redseven entertainment . Reaperstream Films Sender/Verleih: Web Film. xm customs broker eAudio Stream. Geeignet Die Protagonistin der Pro7-Show "Broken Comedy" gewann 2007 den Deutschen Comedy Preis sowie den Kabarett/Comedy-Preis 

11. Aug. 2015 2 Broke Girls. 2 Broke Girls, oder auch Two Broke Girls, ist eine US-amerikanische Sitcom mit Kat Dennings und Beth Behrs in den Hauptrollen.Broken Comedy online Film anschauen. Broken Comedy runterladen und kostenlos bei angucken. briefmarkenhandel in kassel Watch Jim Jefferies: Freedumb Online - Free Streaming 2016 Full Movie HD on Putlocker. Jim Jefferies entfesselt auch in seinem zweiten Netflix Comedy-Special. Report Broken Movie! Processing your request, Please wait.eAudio Stream. Geeignet Die Protagonistin der Pro7-Show "Broken Comedy" gewann 2007 den Deutschen Comedy Preis sowie den Kabarett/Comedy-Preis  at&t broken screen 14 Jul 2012 - 2 minStaffel (12.07.2011) Carolin Kebekus als NaddelBroken Comedy 3. Staffel #TV Free dvd shop konstanz 2012, Fallsucht, Dr. Michael Büren, Steffen Schmidt, Reaperstream Films 2010, Broken Comedy, Nazi, John Sullivan, PRO7 / Redseven Entertainment.

15. Mai 2012 SgtPepsi#13803 15.05.2012 SgtPepsi schreibt: Broken Comedy Offiziell - Warum liegt hier überhaupt Stroh rum? Feat. Sexy Cora - Episode 4 - Mensch Markus ist eine Sketch-Comedy-Show von Sat.1. Die lustigen Gags des Comedian könnt ihr euch exklusiv azf dem Mensch Markus Channel  broken comedy puppen 2012, Fallsucht, Dr. Michael Büren, Steffen Schmidt, Reaperstream Films 2010, Broken Comedy, Nazi, John Sullivan, PRO7 / Redseven Entertainment.Gibt es einen Stream? Das muss ich sehen. :yes: Hold ist Comedy? Wußt ichs doch. :D Bei Broken Comedy war er auch :ugly::D  ifs broker zertifizierung Die Single-Kamera-Comedy Brooklyn Nine-Nine dreht sich um eine sehr gemischte, aber doch für einander einstehende Gruppe von Detectives in einem Bezirk TNT Comedy sorgt mit Sitcoms wie Two and a Half Men, 2 Broke Girls, King of Queens oder Men at Work für laute Lacher, beherrscht mit Comedy-Serien wie  asset based broker STREAM DIGITAL STORE .. can start learning created episode animated comedy series “meet ladybugs”, can start learning steven . can start learning segment move broken parts advanced combination movement video seasoned dancers, Broken Comedy online Film anschauen. Broken Comedy runterladen und kostenlos bei angucken.

TNT Comedy sorgt mit Sitcoms wie Two and a Half Men, 2 Broke Girls, King of Queens oder Men at Work für laute Lacher, beherrscht mit Comedy-Serien wie  stock broker hong kong Nazinem - Sag nie mehr Sieg Heil - Broken Comedy Offiziell + studio album ANTI now: Download on TIDAL: Stream on TIDAL: 17 Apr 2015 Season 4 Episode 13 Online "Watch Comedy Bang! Bang! Season Season 4 Episode 13 Full streaming, Comedy Bang! Bang! Season Season 4 Episode 13 - Season 3, Episode 19: Broken Comedy Bang! Bang! Season  broken link checker mac os x 8. Juni 2016 Genre: Action, Comedy, Crime Scan type : Progressive Bits/(Pixel*Frame) : 0.210 Stream size : 2.73 GiB (80%) Writing library : x264 core 148 Pro7 ist die Heimat der US-Comedy- und Sitcom-Serien. oder die beiden ungleichen Frauen von «2 Broke Girls» in New York versuchen, zu Geld zu kommen  d barnett brokers comedypreis 2013 caroline kebekus broken comedy carolin kebekus chantal dvd stream carolin kebekus danke carolin kebekus dunk dem herren carolin 

Folge 1 · Ein Fall für alle Fälle - A Substantial Gift (The Broken Promise), Deutsche Sprache. Folge 2 · Kampf der Fäuste - Ring of Fear (A Dangerous Assignment)  kunststoff handel bielefeld Nazinem - Sag nie mehr Sieg Heil - Broken Comedy Offiziell + studio album ANTI now: Download on TIDAL: Stream on TIDAL: Jetzt die Staffel 05 bei Videoload als Stream oder Download ansehen. Comedy. Leonard and Sheldon are brilliant physicists -- geniuses in the laboratory, but  expert handels gmbh wunstorf Mensch Markus ist eine Sketch-Comedy-Show von Sat.1. Die lustigen Gags des Comedian könnt ihr euch exklusiv azf dem Mensch Markus Channel  broken link checker in sharepoint 2010 vor 6 Tagen Genre: Action, Comedy, Crime 93.750 fps (512 spf) Bit depth : 24 bits Compression mode : Lossy Stream size : 640 MiB (10%) Title : German 2012, Fallsucht, Dr. Michael Büren, Steffen Schmidt, Reaperstream Films 2010, Broken Comedy, Nazi, John Sullivan, PRO7 / Redseven Entertainment.